<?xml version="1.0" standalone="no"?>
<!DOCTYPE svg PUBLIC "-//W3C//DTD SVG 1.1//EN" "http://www.w3.org/Graphics/SVG/1.1/DTD/svg11.dtd" >
<svg xmlns="http://www.w3.org/2000/svg" xmlns:xlink="http://www.w3.org/1999/xlink" version="1.1">
<metadata>
Created by FontForge 20190801 at Mon Mar 16 09:32:14 2015
 By www-data
copyright missing
</metadata>
<defs>
<font id="VDNHLebedev2Regular" horiz-adv-x="792" >
  <font-face 
    font-family="VDNHLebedev2Regular"
    font-weight="400"
    font-stretch="normal"
    units-per-em="1000"
    panose-1="0 0 5 0 0 0 0 0 0 0"
    ascent="800"
    descent="-200"
    x-height="588"
    cap-height="700"
    bbox="-42 -201 2040 900"
    underline-thickness="50"
    underline-position="-100"
    unicode-range="U+0020-2212"
  />
<missing-glyph horiz-adv-x="500" 
d="M0 0v700h500v-700h-500zM250 395l170 255h-340zM280 350l170 -255v510zM80 50h340l-170 255zM50 605v-510l170 255z" />
    <glyph glyph-name=".notdef" horiz-adv-x="500" 
d="M0 0v700h500v-700h-500zM250 395l170 255h-340zM280 350l170 -255v510zM80 50h340l-170 255zM50 605v-510l170 255z" />
    <glyph glyph-name=".null" horiz-adv-x="0" 
 />
    <glyph glyph-name="nonmarkingreturn" horiz-adv-x="333" 
 />
    <glyph glyph-name="space" unicode=" " horiz-adv-x="290" 
 />
    <glyph glyph-name="exclam" unicode="!" horiz-adv-x="336" 
d="M221 601l-30 -376h-55l-30 374v180h115v-178zM228 163v-163h-132v163h132z" />
    <glyph glyph-name="quotedbl" unicode="&#x22;" horiz-adv-x="425" 
d="M189 762v-278h-93v278h93zM329 762v-278h-93v278h93z" />
    <glyph glyph-name="numbersign" unicode="#" horiz-adv-x="600" 
 />
    <glyph glyph-name="percent" unicode="%" horiz-adv-x="950" 
d="M282 712q67 0 114.5 -47.5t47.5 -114.5t-47.5 -115t-114.5 -48q-68 0 -115.5 47.5t-47.5 115.5q0 67 48 114.5t115 47.5zM218 0h-122l610 700h122zM282 629q-34 0 -57 -23t-23 -56q0 -34 23 -57t57 -23q33 0 56 23t23 57q0 33 -23 56t-56 23zM692 312q67 0 114.5 -47.5
t47.5 -114.5t-47.5 -115t-114.5 -48q-68 0 -115.5 47.5t-47.5 115.5q0 67 48 114.5t115 47.5zM692 230q-34 0 -57.5 -23.5t-23.5 -56.5q0 -34 23.5 -57.5t57.5 -23.5q33 0 56.5 23.5t23.5 57.5q0 33 -23.5 56.5t-56.5 23.5z" />
    <glyph glyph-name="quotesingle" unicode="'" horiz-adv-x="285" 
d="M189 762v-278h-93v278h93z" />
    <glyph glyph-name="parenleft" unicode="(" horiz-adv-x="364" 
d="M275 781l49 -76q-52 -11 -91 -70t-57.5 -140t-19 -175t16.5 -175.5t56.5 -140t94.5 -69.5l-49 -75q-73 7 -126 75t-77 166t-24 212.5t24 214t77 171t126 82.5z" />
    <glyph glyph-name="parenright" unicode=")" horiz-adv-x="364" 
d="M40 705l49 76q73 -11 126 -82.5t77 -171t24 -214t-24 -212.5t-77 -166t-126 -75l-49 75q55 11 94.5 69.5t56.5 140t16.5 175.5t-19 175t-57.5 140t-91 70z" />
    <glyph glyph-name="asterisk" unicode="*" horiz-adv-x="530" 
d="M307 523l-3 -15l93 -96l-70 -51l-61 115q-4 -1 -17 -1l-62 -116l-69 50l91 94q-3 5 -5 15l-132 23l26 82l121 -59q6 6 10 8l-19 136h86l-19 -134q8 -4 11 -7l123 60l26 -81z" />
    <glyph glyph-name="plus" unicode="+" horiz-adv-x="780" 
d="M684 302h-242v-242h-105v242h-241v105h241v241h105v-241h242v-105z" />
    <glyph glyph-name="comma" unicode="," horiz-adv-x="336" 
d="M228 163v-114q0 -74 -17 -141t-44 -109h-50q53 89 53 201h-74v163h132z" />
    <glyph glyph-name="hyphen" unicode="-" horiz-adv-x="504" 
d="M454 391v-105h-404v105h404z" />
    <glyph glyph-name="period" unicode="." horiz-adv-x="336" 
d="M228 163v-163h-132v163h132z" />
    <glyph glyph-name="slash" unicode="/" horiz-adv-x="600" 
d="M578 700l-400 -841h-109l400 841h109z" />
    <glyph glyph-name="zero" unicode="0" 
d="M395 715q162 0 254 -91t92 -274t-92 -274t-254 -91t-252.5 89.5t-91.5 275.5q-1 183 91 274t253 91zM395 611q-105 0 -165 -63t-60 -198t60.5 -200t164.5 -65q105 0 167 65t62 200t-61.5 198t-167.5 63z" />
    <glyph glyph-name="one" unicode="1" 
d="M480 700v-700h-107v535q-38 -55 -91 -90.5t-114 -37.5v111q67 18 125.5 71.5t66.5 110.5h120z" />
    <glyph glyph-name="two" unicode="2" 
d="M696 114v-114h-589v132l304 180q83 49 116 84.5t33 84.5q0 56 -40.5 93t-126.5 37q-93 0 -141.5 -43t-52.5 -108h-111q5 114 83 182t223 68q140 0 210.5 -62.5t70.5 -163.5q0 -56 -20 -100.5t-60.5 -78t-72 -52.5t-84.5 -44l-201 -98z" />
    <glyph glyph-name="three" unicode="3" 
d="M626 364q38 -17 62 -57.5t24 -99.5q0 -219 -302 -219q-283 0 -305 178h112q6 -34 55.5 -57.5t133.5 -23.5q59 0 99 10.5t59 30t26 39t7 44.5q0 41 -29 68t-83 27h-135v100h116q49 0 83 25.5t34 74.5q0 18 -6 34.5t-23 36t-57 30.5t-99 11q-99 -1 -144 -30t-45 -67h-107
q8 87 82.5 140.5t212.5 53.5q160 0 228.5 -53.5t70.5 -149.5q1 -55 -19 -93.5t-51 -52.5z" />
    <glyph glyph-name="four" unicode="4" 
d="M740 136h-116v-136h-110v136h-461v109q59 21 117.5 56.5t120 90t111 136.5t72.5 178h125q-27 -152 -137 -279.5t-247 -186.5h299v129h110v-129h116v-104z" />
    <glyph glyph-name="five" unicode="5" 
d="M124 700v-362h294q100 0 135.5 -32t35.5 -91q0 -58 -37.5 -89t-140.5 -31q-114 0 -158.5 26t-45.5 87h-111q2 -114 76 -166t233 -52q155 0 227 61.5t72 167.5q0 117 -67 169.5t-202 52.5h-206v152h435v107h-540z" />
    <glyph glyph-name="six" unicode="6" 
d="M422 481q133 0 207.5 -58t74.5 -183q0 -250 -301 -250q-162 0 -233.5 66.5t-73.5 212.5q0 431 403 431h155v-108h-140q-145 0 -218 -50t-85 -128q23 32 79 49.5t132 17.5zM402 90q105 0 146 38t41 108q0 62 -42.5 102t-139.5 40q-196 0 -196 -145q1 -143 191 -143z" />
    <glyph glyph-name="seven" unicode="7" 
d="M686 700v-156q-53 -26 -108 -72.5t-110.5 -112.5t-100.5 -160t-67 -199h-134q19 95 59.5 182t85.5 148t99 113t93.5 81t74.5 48v11q-158 -3 -474 -3v120h582z" />
    <glyph glyph-name="eight" unicode="8" horiz-adv-x="736" 
d="M367 710q-142 0 -213.5 -55.5t-71.5 -151.5q0 -48 22.5 -89.5t68.5 -60.5q-108 -37 -108 -163q0 -205 304 -205q302 0 302 205q0 126 -108 163q46 19 68.5 60.5t22.5 90.5q0 95 -72.5 150.5t-214.5 55.5zM369 618q90 -2 131.5 -28t41.5 -83q0 -53 -30.5 -80.5
t-119.5 -27.5h-36q-90 0 -126 28.5t-36 79.5q0 57 42 83t133 28zM336 301h64q85 0 120.5 -31.5t35.5 -77.5q0 -60 -49.5 -85t-139.5 -26q-90 1 -138.5 25.5t-48.5 85.5q0 46 35.5 77.5t120.5 31.5z" />
    <glyph glyph-name="nine" unicode="9" 
d="M398 211q-133 0 -207.5 58t-74.5 183q0 250 301 250q162 0 233.5 -66.5t73.5 -212.5q0 -431 -403 -431h-155v108h140q145 0 218 50t85 128q-23 -32 -79 -49.5t-132 -17.5zM418 602q-105 0 -146 -38t-41 -108q0 -62 42.5 -102t139.5 -40q196 0 196 145q-1 143 -191 143z
" />
    <glyph glyph-name="colon" unicode=":" horiz-adv-x="444" 
d="M228 590v-163h-132v163h132zM228 163v-163h-132v163h132z" />
    <glyph glyph-name="semicolon" unicode=";" horiz-adv-x="336" 
d="M228 586v-163h-132v163h132zM96 163h132v-114q0 -74 -17 -141t-44 -109h-50q53 89 53 201h-74v163z" />
    <glyph glyph-name="equal" unicode="=" horiz-adv-x="752" 
d="M652 445v-103h-552v103h552zM652 228v-103h-552v103h552z" />
    <glyph glyph-name="question" unicode="?" horiz-adv-x="648" 
d="M363 397q-70 -13 -109 -49t-39 -116h111q0 37 18.5 52t62.5 23q110 21 161 62.5t51 135.5q0 82 -70.5 143.5t-213.5 61.5q-137 0 -219.5 -57.5t-90.5 -150.5l122 1q7 44 52.5 72t134.5 28q82 0 125.5 -29t43.5 -79q0 -49 -36 -68q-31 -16 -104 -30zM337 163v-163h-132
v163h132z" />
    <glyph glyph-name="A" unicode="A" horiz-adv-x="768" 
d="M577 157h-388l-61 -157h-116l281 700h187l276 -700h-119zM535 263l-126 328h-53l-127 -328h306z" />
    <glyph glyph-name="B" unicode="B" horiz-adv-x="816" 
d="M670 363q37 -23 59 -66t22 -100q0 -80 -52 -138.5t-142 -58.5h-437v700h416q92 0 144 -55t54 -137q1 -43 -15.5 -83.5t-48.5 -61.5zM228 595v-194h298q36 0 61 20t30.5 48.5t0.5 57t-28.5 48.5t-58.5 20h-303zM228 105h311q37 0 62 19.5t31 48t0.5 56.5t-30 47.5
t-60.5 19.5h-314v-191z" />
    <glyph glyph-name="C" unicode="C" horiz-adv-x="804" 
d="M656 274h108q-23 -132 -119.5 -213t-234.5 -81q-157 0 -259.5 106t-102.5 264q0 156 102.5 263t259.5 107q138 0 237.5 -84t115.5 -213h-110q-13 87 -80.5 139.5t-162.5 52.5q-111 0 -178.5 -77t-67.5 -188t67.5 -188t178.5 -77q98 0 160.5 49.5t85.5 139.5z" />
    <glyph glyph-name="D" unicode="D" horiz-adv-x="816" 
d="M230 700h188q158 0 254 -98t96 -252q0 -158 -95 -254t-253 -96h-190h-110v700h110zM230 105h183q108 0 173.5 67t65.5 175t-63.5 177t-175.5 69h-183v-488z" />
    <glyph glyph-name="E" unicode="E" horiz-adv-x="756" 
d="M226 595v-185h425v-103h-425v-202h446v-105h-552v700h552v-105h-446z" />
    <glyph glyph-name="F" unicode="F" horiz-adv-x="720" 
d="M234 588v-173h439v-111h-439v-304h-114v700h576v-112h-462z" />
    <glyph glyph-name="G" unicode="G" horiz-adv-x="804" 
d="M764 364v-35q0 -108 -50.5 -189t-130 -120.5t-173.5 -39.5q-158 0 -260 104t-102 266q0 156 103.5 263t260.5 107q141 0 230 -75.5t118 -197.5h-110q-21 78 -82 124.5t-155 46.5q-114 0 -182 -77t-68 -191q0 -121 67 -194t184 -73q100 0 163.5 51.5t79.5 135.5h-177v94
h284z" />
    <glyph glyph-name="H" unicode="H" horiz-adv-x="864" 
d="M744 700v-700h-108v303h-408v-303h-108v700h108v-291h408v291h108z" />
    <glyph glyph-name="I" unicode="I" horiz-adv-x="348" 
d="M230 700v-700h-112v700h112z" />
    <glyph glyph-name="J" unicode="J" horiz-adv-x="744" 
d="M624 700v-446q0 -139 -73 -201t-236 -62q-97 0 -160.5 14t-95 41.5t-43 58.5t-11.5 76h110q2 -21 10 -35t28.5 -27t61 -19.5t102.5 -6.5q110 0 153.5 41t43.5 139v427h110z" />
    <glyph glyph-name="K" unicode="K" horiz-adv-x="768" 
d="M326 370l-92 -78v-292h-114v700h114v-280q175 151 314 280h165l-299 -255l342 -445h-148z" />
    <glyph glyph-name="L" unicode="L" horiz-adv-x="720" 
d="M696 108v-108h-576v700h108v-592h468z" />
    <glyph glyph-name="M" unicode="M" horiz-adv-x="1080" 
d="M960 0h-111l-2 589h-18l-223 -585h-136l-227 585h-17l-1 -589h-105l3 700h198l222 -584l217 584h197z" />
    <glyph glyph-name="N" unicode="N" horiz-adv-x="889" 
d="M769 700v-700h-159q-60 96 -179 294.5t-183 300.5h-23v-595h-105v700h192q100 -157 348 -578h3v578h106z" />
    <glyph glyph-name="O" unicode="O" horiz-adv-x="840" 
d="M420 720q159 0 265.5 -107t106.5 -263t-106.5 -263t-265.5 -107q-160 0 -266 106t-106 264q0 156 106.5 263t265.5 107zM420 619q-116 0 -188 -76.5t-72 -192.5q0 -117 72 -193t188 -76t188 76t72 193q0 116 -72 192.5t-188 76.5z" />
    <glyph glyph-name="P" unicode="P" 
d="M120 700h448q55 0 97.5 -22t65 -57t32.5 -77t-0.5 -84.5t-33 -77.5t-66 -57t-99.5 -22h-336v-303h-108v700zM228 410h336q43 0 67.5 29t24.5 63.5t-24.5 63.5t-67.5 29h-336v-185z" />
    <glyph glyph-name="Q" unicode="Q" horiz-adv-x="840" 
d="M637 46q39 -41 92 -52l-1 -87q-118 8 -178 95q-63 -22 -130 -22q-160 0 -266 106t-106 264q0 156 106.5 263t265.5 107t265.5 -107t106.5 -263q0 -94 -41.5 -173.5t-113.5 -130.5zM420 81q38 0 73 9q-32 42 -83 42v91q64 -3 100.5 -27t66.5 -66q49 35 76 92.5t27 127.5
q0 116 -72 192.5t-188 76.5t-188 -76.5t-72 -192.5q0 -117 72 -193t188 -76z" />
    <glyph glyph-name="R" unicode="R" horiz-adv-x="863" 
d="M726 225l2 -80q2 -56 31 -57v-88h-41q-53 0 -71 27.5t-20 91.5l-4 94q0 78 -92 78h-303v-291h-108v700h432q89 0 139.5 -56.5t50.5 -135.5q0 -44 -19 -85.5t-55 -68.5q56 -38 58 -129zM228 396h306q48 0 75.5 31t27.5 68.5t-27.5 68.5t-75.5 31h-306v-199z" />
    <glyph glyph-name="S" unicode="S" 
d="M593 490l112 -1q-16 78 -67 128.5t-120.5 71.5t-159.5 21q-149 0 -219.5 -60t-68.5 -151q1 -106 98 -153q19 -9 38 -16t47 -13t38.5 -8.5t50 -8.5t44.5 -7q115 -19 160 -37q61 -25 63 -82q1 -54 -40.5 -71.5t-135.5 -17.5q-126 0 -191 36t-87 105l-102 1
q23 -124 120.5 -179.5t269.5 -55.5q140 0 206.5 47t64.5 142q-3 120 -110 173q-57 28 -209 52q-110 17 -158 33q-58 20 -60 75q-1 51 50 77t134 26q103 0 158.5 -38t73.5 -89z" />
    <glyph glyph-name="T" unicode="T" horiz-adv-x="720" 
d="M714 593h-300v-593h-108v593h-300v107h708v-107z" />
    <glyph glyph-name="U" unicode="U" horiz-adv-x="888" 
d="M660 701v-445q0 -90 -56 -125.5t-161 -35.5t-160 35t-55 125v445h-108v-442q0 -76 23 -129.5t67.5 -83t100.5 -42t131 -12.5q74 0 130.5 12.5t102 42t69.5 83.5t24 130v442h-108z" />
    <glyph glyph-name="V" unicode="V" horiz-adv-x="768" 
d="M756 700l-301 -700h-135l-308 700h132l244 -576h5l239 576h124z" />
    <glyph glyph-name="W" unicode="W" horiz-adv-x="1056" 
d="M1044 700l-216 -700h-143l-140 361l-147 -361h-135l-251 700h121l198 -572h13l155 384h108l141 -383h13l176 571h107z" />
    <glyph glyph-name="X" unicode="X" 
d="M616 0l-224 291l-229 -291h-124l296 365l-265 335h127l201 -255l197 255h130l-269 -329l297 -371h-137z" />
    <glyph glyph-name="Y" unicode="Y" horiz-adv-x="779" 
d="M451 300v-300h-112v296l-327 404h138l247 -308l243 308h127z" />
    <glyph glyph-name="Z" unicode="Z" horiz-adv-x="768" 
d="M696 105v-105h-624v105l468 490h-468v105h614v-105l-471 -490h481z" />
    <glyph glyph-name="bracketleft" unicode="[" horiz-adv-x="388" 
d="M211 691v-698h107v-92h-107v-1h-91v883h198v-92h-107z" />
    <glyph glyph-name="backslash" unicode="\" horiz-adv-x="600" 
 />
    <glyph glyph-name="bracketright" unicode="]" horiz-adv-x="388" 
d="M268 783v-883h-91v1h-107v92h107v698h-107v92h198z" />
    <glyph glyph-name="asciicircum" unicode="^" horiz-adv-x="600" 
 />
    <glyph glyph-name="underscore" unicode="_" horiz-adv-x="600" 
 />
    <glyph glyph-name="a" unicode="a" horiz-adv-x="672" 
d="M576 406v-256q0 -39 11.5 -53t48.5 -14v-83h-80q-36 0 -55.5 18t-19.5 52q-35 -42 -99 -62t-134 -20q-178 0 -178 139q0 74 47 117q39 36 138 61l227 58v44q0 55 -26.5 82.5t-94.5 27.5q-169 0 -185 -108h-96q17 189 292 189q115 0 159.5 -48.5t44.5 -143.5zM482 282
l-228 -65q-40 -12 -57 -24q-30 -22 -30 -60q0 -29 25.5 -44t69.5 -15q51 0 97.5 12.5t84.5 49.5t38 93v53z" />
    <glyph glyph-name="b" unicode="b" horiz-adv-x="720" 
d="M394 600q124 0 201 -88.5t77 -220.5t-75 -217t-203 -85t-200 77v-66h-98v768h98v-246q72 78 200 78zM384 80q90 0 137.5 59t47.5 152q0 94 -47.5 155.5t-137.5 61.5t-139.5 -61.5t-49.5 -154.5q0 -92 49.5 -152t139.5 -60z" />
    <glyph glyph-name="c" unicode="c" horiz-adv-x="671" 
d="M625 363h-96q-13 66 -60 105.5t-121 39.5q-91 0 -145.5 -62t-54.5 -152t54.5 -151t145.5 -61q141 0 178 125h96q-23 -97 -95.5 -158t-178.5 -61q-132 0 -216 85.5t-84 222.5q0 130 84.5 217t215.5 87q115 0 190.5 -66t86.5 -171z" />
    <glyph glyph-name="d" unicode="d" horiz-adv-x="720" 
d="M624 768v-768h-98v66q-72 -77 -200 -77t-203 85t-75 217t77 220.5t201 88.5q128 0 200 -78v246h98zM336 80q90 0 139.5 60t49.5 152q0 93 -49.5 154.5t-139.5 61.5t-137.5 -61.5t-47.5 -155.5q0 -93 47.5 -152t137.5 -59z" />
    <glyph glyph-name="e" unicode="e" horiz-adv-x="660" 
d="M335 600q130 0 206.5 -86.5t72.5 -246.5h-465q2 -81 55.5 -133.5t139.5 -52.5q121 0 165 118h99q-26 -94 -97.5 -152.5t-175.5 -58.5q-125 0 -206 85t-81 219t79.5 221t207.5 87zM334 509q-65 0 -115.5 -40.5t-63.5 -110.5h351q-11 73 -55 112t-117 39z" />
    <glyph glyph-name="f" unicode="f" horiz-adv-x="384" 
d="M387 682l-101 1q-37 0 -50 -16.5t-13 -58.5v-26h140v-88h-140v-494h-100v494h-97v88h97v39q0 84 31 118.5t112 34.5q93 0 123 -2z" />
    <glyph glyph-name="g" unicode="g" horiz-adv-x="702" 
d="M606 588v-550q0 -70 -16.5 -115t-53 -68.5t-81.5 -32t-114 -8.5h-36q-238 0 -238 149h106q8 -32 43 -45.5t106 -13.5h30q86 0 121.5 31t35.5 114v28q-65 -82 -189 -82t-198 85t-74 217q0 133 72.5 218t199.5 85q124 0 189 -80v68h97zM328 87q87 0 133 58.5t46 150.5
t-46 150.5t-133 58.5t-132 -58t-45 -150q0 -93 45 -151.5t132 -58.5z" />
    <glyph glyph-name="h" unicode="h" horiz-adv-x="696" 
d="M397 602q93 0 148 -44.5t55 -134.5v-423h-96v396q0 112 -127 112q-76 0 -130.5 -42t-54.5 -133v-333h-96v768h96v-244q81 78 205 78z" />
    <glyph glyph-name="i" unicode="i" horiz-adv-x="288" 
d="M201 730v-90h-114v90h114zM94 0v588h100l-1 -588h-99z" />
    <glyph glyph-name="j" unicode="j" horiz-adv-x="288" 
d="M201 730v-90h-114v90h114zM-1 -184v87q59 1 77 18t18 82v585h97v-593q0 -59 -4.5 -88.5t-22.5 -52.5t-52 -30.5t-95 -7.5h-18z" />
    <glyph glyph-name="k" unicode="k" horiz-adv-x="648" 
d="M270 308l-77 -68v-240h-98v768h98v-413l259 233h137l-239 -210l292 -378h-133z" />
    <glyph glyph-name="l" unicode="l" horiz-adv-x="289" 
d="M95 0v768h98v-768h-98z" />
    <glyph glyph-name="m" unicode="m" horiz-adv-x="1032" 
d="M749 601q84 0 135.5 -42.5t51.5 -139.5v-419h-96v400q0 51 -24.5 80.5t-86.5 29.5q-59 0 -112 -44.5t-53 -124.5v-341h-96v402q0 51 -24 79.5t-87 28.5q-59 0 -112 -47.5t-53 -131.5v-331h-96v588h96v-74q71 87 185 87q131 0 171 -93q70 93 201 93z" />
    <glyph glyph-name="n" unicode="n" horiz-adv-x="696" 
d="M192 588v-64q81 78 205 78q93 0 148 -44.5t55 -134.5v-423h-96v396q0 112 -127 112q-76 0 -130.5 -42t-54.5 -133v-333h-96v588h96z" />
    <glyph glyph-name="o" unicode="o" horiz-adv-x="696" 
d="M348 600q132 0 216 -87t84 -218t-84 -219t-216 -88q-131 0 -215.5 88t-84.5 218t84.5 218t215.5 88zM348 507q-90 0 -144.5 -62t-54.5 -151q0 -90 54.5 -152t144.5 -62t144.5 62.5t54.5 152.5q0 89 -54.5 150.5t-144.5 61.5z" />
    <glyph glyph-name="p" unicode="p" horiz-adv-x="720" 
d="M394 599q128 0 203 -85t75 -217t-77 -220.5t-201 -88.5q-128 0 -200 78v-246h-98v768h98v-66q72 77 200 77zM384 80q90 0 137.5 61.5t47.5 155.5q0 93 -47.5 152t-137.5 59t-139.5 -60t-49.5 -152q0 -93 49.5 -154.5t139.5 -61.5z" />
    <glyph glyph-name="q" unicode="q" horiz-adv-x="720" 
d="M624 588v-768h-98v246q-72 -78 -200 -78q-124 0 -201 88.5t-77 220.5t75 217t203 85t200 -77v66h98zM336 80q90 0 139.5 61.5t49.5 154.5q0 92 -49.5 152t-139.5 60t-137.5 -59t-47.5 -152q0 -94 47.5 -155.5t137.5 -61.5z" />
    <glyph glyph-name="r" unicode="r" horiz-adv-x="504" 
d="M197 588l-3 -74q49 86 155 86q68 0 102 -31.5t34 -99.5v-47h-94q0 16 -0.5 24t-3.5 22t-9 21t-18 13t-30 6q-58 0 -95 -61t-37 -167v-280h-102v588h101z" />
    <glyph glyph-name="s" unicode="s" horiz-adv-x="660" 
d="M353 343q-103 11 -145 27.5t-42 60.5q0 38 37.5 58t98.5 20q167 0 197 -87l99 -1q-29 179 -295 179q-102 0 -167 -47t-65 -134q0 -80 60 -125q61 -45 215 -60q85 -9 126 -26t41 -58q0 -83 -157 -74q-94 5 -146.5 33t-66.5 95l-89 1q15 -217 317 -217q235 0 235 171
q0 81 -60 127q-55 42 -193 57z" />
    <glyph glyph-name="t" unicode="t" horiz-adv-x="395" 
d="M227 500v-335q0 -41 17 -59.5t55 -18.5h82v-87q-33 -1 -104 -1q-88 0 -117 31.5t-29 117.5v352h-95v88h95v65l96 100v-165h157v-88h-157z" />
    <glyph glyph-name="u" unicode="u" horiz-adv-x="696" 
d="M504 0v64q-81 -78 -205 -78q-93 0 -148 44.5t-55 134.5v423h96v-396q0 -112 127 -112q76 0 130.5 42t54.5 133v333h96v-588h-96z" />
    <glyph glyph-name="v" unicode="v" horiz-adv-x="624" 
d="M609 588l-212 -588h-147l-235 588h112l191 -486h14l174 486h103z" />
    <glyph glyph-name="w" unicode="w" horiz-adv-x="1020" 
d="M1005 588l-204 -588h-144l-141 426l-143 -426h-138l-220 588h104l181 -488h16l158 472h102l152 -472h12l170 488h95z" />
    <glyph glyph-name="x" unicode="x" horiz-adv-x="600" 
d="M459 0l-165 232l-163 -232h-116l222 306l-202 282h121l144 -203l143 203h112l-198 -276l228 -312h-126z" />
    <glyph glyph-name="y" unicode="y" horiz-adv-x="624" 
d="M594 588l-284 -672q-22 -51 -52 -70t-80 -19h-77v94h46q40 0 59.5 12t36.5 51l31 70l-244 534h113l180 -413l168 413h103z" />
    <glyph glyph-name="z" unicode="z" horiz-adv-x="614" 
d="M574 500l-391 -412h391v-88h-529v88l395 412h-395v88h529v-88z" />
    <glyph glyph-name="braceleft" unicode="{" horiz-adv-x="600" 
 />
    <glyph glyph-name="braceright" unicode="}" horiz-adv-x="600" 
 />
    <glyph glyph-name="exclamdown" unicode="&#xa1;" horiz-adv-x="600" 
 />
    <glyph glyph-name="guillemotleft" unicode="&#xab;" horiz-adv-x="624" 
d="M336 473l-80 -218l80 -216h-86l-100 216l100 218h86zM576 473l-80 -218l80 -216h-86l-100 216l100 218h86z" />
    <glyph glyph-name="periodcentered" unicode="&#xb7;" horiz-adv-x="600" 
 />
    <glyph glyph-name="guillemotright" unicode="&#xbb;" horiz-adv-x="624" 
d="M336 255l-100 -216h-86l80 216l-80 218h86zM576 255l-100 -216h-86l80 216l-80 218h86z" />
    <glyph glyph-name="multiply" unicode="&#xd7;" horiz-adv-x="690" 
d="M416 326l171 -171l-74 -74l-171 171l-171 -171l-74 74l171 171l-171 171l75 74l170 -170l170 170l75 -74z" />
    <glyph glyph-name="uni0401" unicode="&#x401;" horiz-adv-x="756" 
d="M310 730h-117v90h117v-90zM600 730h-117v90h117v-90zM226 595v-185h425v-103h-425v-202h446v-105h-552v700h552v-105h-446z" />
    <glyph glyph-name="uni0405" unicode="&#x405;" 
d="M593 490l112 -1q-16 78 -67 128.5t-120.5 71.5t-159.5 21q-149 0 -219.5 -60t-68.5 -151q1 -106 98 -153q19 -9 38 -16t47 -13t38.5 -8.5t50 -8.5t44.5 -7q115 -19 160 -37q61 -25 63 -82q1 -54 -40.5 -71.5t-135.5 -17.5q-126 0 -191 36t-87 105l-102 1
q23 -124 120.5 -179.5t269.5 -55.5q140 0 206.5 47t64.5 142q-3 120 -110 173q-57 28 -209 52q-110 17 -158 33q-58 20 -60 75q-1 51 50 77t134 26q103 0 158.5 -38t73.5 -89z" />
    <glyph glyph-name="uni0406" unicode="&#x406;" horiz-adv-x="348" 
d="M230 700v-700h-112v700h112z" />
    <glyph glyph-name="uni0408" unicode="&#x408;" horiz-adv-x="744" 
d="M624 700v-446q0 -139 -73 -201t-236 -62q-97 0 -160.5 14t-95 41.5t-43 58.5t-11.5 76h110q2 -21 10 -35t28.5 -27t61 -19.5t102.5 -6.5q110 0 153.5 41t43.5 139v427h110z" />
    <glyph glyph-name="uni0410" unicode="&#x410;" horiz-adv-x="768" 
d="M577 157h-388l-61 -157h-116l281 700h187l276 -700h-119zM535 263l-126 328h-53l-127 -328h306z" />
    <glyph glyph-name="uni0411" unicode="&#x411;" horiz-adv-x="816" 
d="M234 411h308q55 0 98.5 -22.5t65.5 -59t32.5 -80t0 -87.5t-32.5 -80.5t-65.5 -59t-98.5 -22.5h-422v700h573v-109h-459v-180zM234 111h299q45 0 70 29t25 64.5t-25 64.5t-70 29h-299v-187z" />
    <glyph glyph-name="uni0412" unicode="&#x412;" horiz-adv-x="816" 
d="M670 363q37 -23 59 -66t22 -100q0 -80 -52 -138.5t-142 -58.5h-437v700h416q92 0 144 -55t54 -137q1 -43 -15.5 -83.5t-48.5 -61.5zM228 595v-194h298q36 0 61 20t30.5 48.5t0.5 57t-28.5 48.5t-58.5 20h-303zM228 105h311q37 0 62 19.5t31 48t0.5 56.5t-30 47.5
t-60.5 19.5h-314v-191z" />
    <glyph glyph-name="uni0413" unicode="&#x413;" horiz-adv-x="683" 
d="M671 592h-439v-592h-112v700h551v-108z" />
    <glyph glyph-name="uni0414" unicode="&#x414;" horiz-adv-x="840" 
d="M780 -166h-104v166h-548v-166h-104v264h72q63 33 106.5 103.5t65.5 157.5q28 113 28 341h376v-602h108v-264zM560 602h-165l-2 -43q-3 -79 -17.5 -157.5t-52.5 -166.5t-94 -136h331v503z" />
    <glyph glyph-name="uni0415" unicode="&#x415;" horiz-adv-x="756" 
d="M226 595v-185h425v-103h-425v-202h446v-105h-552v700h552v-105h-446z" />
    <glyph glyph-name="uni0416" unicode="&#x416;" horiz-adv-x="1272" 
d="M1081 289l8 -145q0 -29 14.5 -38t65.5 -9v-97h-83q-56 0 -76 29t-25 110l-6 106q-2 39 -18.5 53t-54.5 14h-217v-312h-106v312h-217q-38 0 -54.5 -14t-18.5 -53l-6 -106q-5 -81 -25 -110t-76 -29h-83v97q51 0 65.5 9t14.5 38l8 145q3 67 47 91q-34 28 -34 82l-3 82
q-1 22 -2.5 30.5t-8 17.5t-20.5 11.5t-40 2.5v94h73q49 0 73.5 -24t25.5 -80l1 -114q0 -65 64 -65h216v283h106v-283h216q64 0 64 65l1 114q1 56 25.5 80t73.5 24h73v-94q-26 0 -40 -2.5t-20.5 -11.5t-8 -17.5t-2.5 -30.5l-3 -82q0 -54 -34 -82q44 -24 47 -91z" />
    <glyph glyph-name="uni0417" unicode="&#x417;" horiz-adv-x="732" 
d="M584 358q40 -18 64 -60.5t24 -94.5q0 -215 -293 -215q-310 0 -315 247h104q0 -70 54.5 -111t161.5 -41q91 0 133.5 31.5t42.5 85.5q0 45 -28.5 74.5t-78.5 29.5h-222v97l223 2q49 1 76.5 29t27.5 70q0 118 -186 118q-102 0 -153 -38.5t-51 -99.5h-101q3 105 77 169
t235 64q155 0 222 -59.5t67 -150.5q0 -47 -23 -87.5t-61 -59.5z" />
    <glyph glyph-name="uni0418" unicode="&#x418;" horiz-adv-x="864" 
d="M744 700v-700h-108l2 582l-26 -47l-356 -535h-136v700h108l-2 -583l23 42l358 541h137z" />
    <glyph glyph-name="uni0419" unicode="&#x419;" horiz-adv-x="866" 
d="M531 742h-183q-85 0 -113.5 29t-28.5 83v10h86q8 -37 63 -37h159q28 0 42.5 8t20.5 29h86v-9q0 -55 -27 -84t-105 -29zM744 700v-700h-108l2 582l-26 -47l-356 -535h-136v700h108l-2 -583l23 42l358 541h137z" />
    <glyph glyph-name="uni041A" unicode="&#x41a;" horiz-adv-x="817" 
d="M660 289l8 -145q0 -29 14.5 -38t65.5 -9v-97h-83q-56 0 -76 29t-25 110l-6 106q-2 39 -18.5 53t-54.5 14h-258v-312h-107v700h107v-283h257q64 0 64 65l1 114q1 56 25.5 80t73.5 24h73v-94q-26 0 -40 -2.5t-20.5 -11.5t-8 -17.5t-2.5 -30.5l-3 -82q0 -54 -34 -82
q44 -24 47 -91z" />
    <glyph glyph-name="uni041B" unicode="&#x41b;" horiz-adv-x="816" 
d="M696 700v-700h-108v598h-286q-41 0 -54.5 -18.5t-13.5 -57.5l-5 -336q0 -34 -2.5 -57t-11 -49.5t-23.5 -42.5t-42.5 -26.5t-66.5 -10.5h-59v96q68 0 86 13.5t19 63.5l3 331q0 25 0.5 40t3.5 38.5t9 37.5t17.5 31t28.5 26.5t42.5 16t58.5 6.5h404z" />
    <glyph glyph-name="uni041C" unicode="&#x41c;" horiz-adv-x="1080" 
d="M960 0h-111l-2 589h-18l-223 -585h-136l-227 585h-17l-1 -589h-105l3 700h198l222 -584l217 584h197z" />
    <glyph glyph-name="uni041D" unicode="&#x41d;" horiz-adv-x="864" 
d="M744 700v-700h-108v303h-408v-303h-108v700h108v-291h408v291h108z" />
    <glyph glyph-name="uni041E" unicode="&#x41e;" horiz-adv-x="840" 
d="M420 720q159 0 265.5 -107t106.5 -263t-106.5 -263t-265.5 -107q-160 0 -266 106t-106 264q0 156 106.5 263t265.5 107zM420 619q-116 0 -188 -76.5t-72 -192.5q0 -117 72 -193t188 -76t188 76t72 193q0 116 -72 192.5t-188 76.5z" />
    <glyph glyph-name="uni041F" unicode="&#x41f;" horiz-adv-x="874" 
d="M754 700v-700h-114v587h-406v-587h-114v700h634z" />
    <glyph glyph-name="uni0420" unicode="&#x420;" 
d="M120 700h448q55 0 97.5 -22t65 -57t32.5 -77t-0.5 -84.5t-33 -77.5t-66 -57t-99.5 -22h-336v-303h-108v700zM228 410h336q43 0 67.5 29t24.5 63.5t-24.5 63.5t-67.5 29h-336v-185z" />
    <glyph glyph-name="uni0421" unicode="&#x421;" horiz-adv-x="804" 
d="M656 274h108q-23 -132 -119.5 -213t-234.5 -81q-157 0 -259.5 106t-102.5 264q0 156 102.5 263t259.5 107q138 0 237.5 -84t115.5 -213h-110q-13 87 -80.5 139.5t-162.5 52.5q-111 0 -178.5 -77t-67.5 -188t67.5 -188t178.5 -77q98 0 160.5 49.5t85.5 139.5z" />
    <glyph glyph-name="uni0422" unicode="&#x422;" horiz-adv-x="720" 
d="M714 593h-300v-593h-108v593h-300v107h708v-107z" />
    <glyph glyph-name="uni0423" unicode="&#x423;" horiz-adv-x="743" 
d="M719 700l-313 -595q-31 -59 -58.5 -82t-88.5 -23h-110v105h70q44 0 69.5 12t44.5 48l14 27l-322 508h130l247 -399l203 399h114z" />
    <glyph glyph-name="uni0424" unicode="&#x424;" horiz-adv-x="1067" 
d="M587 621h226q61 0 108.5 -24.5t72 -64t36 -87.5t0 -95.5t-36 -87t-72 -64t-108.5 -24.5h-226v-183h-106v183h-226q-54 0 -97 19t-69.5 50.5t-41 72t-14.5 82t14.5 82t41 72t69.5 50.5t97 19h226v140h106v-140zM481 271v253h-221q-58 0 -90.5 -39.5t-32.5 -87t32.5 -87
t90.5 -39.5h221zM587 271h221q46 0 77.5 26t39 63.5t0 74.5t-39 63t-77.5 26h-221v-253z" />
    <glyph glyph-name="uni0425" unicode="&#x425;" 
d="M616 0l-224 291l-229 -291h-124l296 365l-265 335h127l201 -255l197 255h130l-269 -329l297 -371h-137z" />
    <glyph glyph-name="uni0426" unicode="&#x426;" horiz-adv-x="888" 
d="M836 98v-264h-104v166h-612v700h108v-597h378v597h114v-602h116z" />
    <glyph glyph-name="uni0427" unicode="&#x427;" horiz-adv-x="768" 
d="M648 700v-700h-108v317h-298q-104 0 -149 36t-45 133v214h110v-194q0 -52 21 -68.5t74 -16.5h287v279h108z" />
    <glyph glyph-name="uni0428" unicode="&#x428;" horiz-adv-x="1212" 
d="M1092 0h-972v700h108v-599h324v599h108v-599h324v599h108v-700z" />
    <glyph glyph-name="uni0429" unicode="&#x429;" horiz-adv-x="1268" 
d="M1216 98v-264h-104v166h-992v700h108v-599h324v599h108v-599h324v599h108v-602h124z" />
    <glyph glyph-name="uni042A" unicode="&#x42a;" horiz-adv-x="840" 
d="M276 397h336q56 0 99.5 -22t66 -57t33 -77.5t0.5 -84.5t-32.5 -77t-65 -57t-97.5 -22h-448v598h-210v102h318v-303zM276 105h336q43 0 67.5 29t24.5 63.5t-24.5 63.5t-67.5 29h-336v-185z" />
    <glyph glyph-name="uni042B" unicode="&#x42b;" horiz-adv-x="1080" 
d="M228 390h309q52 0 93.5 -21.5t62.5 -56t31 -76t0 -83t-31.5 -76t-63 -56t-93.5 -21.5h-416v700h108v-310zM960 700v-700h-112v700h112zM228 104h292q43 0 67.5 28.5t24.5 63t-24.5 63t-67.5 28.5h-292v-183z" />
    <glyph glyph-name="uni042C" unicode="&#x42c;" 
d="M228 397h336q56 0 99.5 -22t66 -57t33 -77.5t0.5 -84.5t-32.5 -77t-65 -57t-97.5 -22h-448v700h108v-303zM228 105h336q43 0 67.5 29t24.5 63.5t-24.5 63.5t-67.5 29h-336v-185z" />
    <glyph glyph-name="uni042D" unicode="&#x42d;" horiz-adv-x="838" 
d="M416 710q156 0 258 -103t102 -257q0 -157 -101 -258.5t-257 -101.5q-146 0 -241.5 75t-112.5 199h107q21 -79 84 -127.5t159 -48.5q99 0 167 60t81 159h-362v96h360q-16 92 -83.5 149t-164.5 57q-181 0 -237 -154h-110q22 109 118.5 182t232.5 73z" />
    <glyph glyph-name="uni042E" unicode="&#x42e;" horiz-adv-x="1192" 
d="M724 720q156 0 260 -107t104 -263t-104 -263t-260 -107q-141 0 -241 87t-120 223h-133v-290h-112v700h112v-303h132q16 139 117 231t245 92zM724 81q113 0 183.5 76t70.5 193q0 116 -70.5 192.5t-183.5 76.5q-114 0 -184.5 -76.5t-70.5 -192.5q0 -117 70.5 -193
t184.5 -76z" />
    <glyph glyph-name="uni042F" unicode="&#x42f;" 
d="M672 700v-700h-108v278h-253l-137 -278h-116l147 289q-52 13 -87 49t-47.5 81t-6 95t30 91t68.5 68t103 27h406zM564 381v214h-297q-64 0 -89 -53.5t3.5 -107t95.5 -53.5h287z" />
    <glyph glyph-name="uni0430" unicode="&#x430;" horiz-adv-x="672" 
d="M576 406v-256q0 -39 11.5 -53t48.5 -14v-83h-80q-36 0 -55.5 18t-19.5 52q-35 -42 -99 -62t-134 -20q-178 0 -178 139q0 74 47 117q39 36 138 61l227 58v44q0 55 -26.5 82.5t-94.5 27.5q-169 0 -185 -108h-96q17 189 292 189q115 0 159.5 -48.5t44.5 -143.5zM482 282
l-228 -65q-40 -12 -57 -24q-30 -22 -30 -60q0 -29 25.5 -44t69.5 -15q51 0 97.5 12.5t84.5 49.5t38 93v53z" />
    <glyph glyph-name="uni0431" unicode="&#x431;" horiz-adv-x="672" 
d="M353 583q120 0 195.5 -86t75.5 -205q0 -130 -79 -216t-205 -86q-134 0 -213 86.5t-79 253.5v1q0 133 18.5 218.5t81.5 139.5q30 26 72.5 40t73 17t84 4.5t72.5 3.5q17 1 26 7.5t11 10.5t4 14h87q0 -62 -20 -95t-77 -34q-23 0 -64 -0.5t-57 -0.5t-44 -1.5t-41 -4.5
t-31.5 -8t-31.5 -13.5t-26 -20.5q-54 -48 -62 -169l4 3q55 141 225 141zM337 80q84 0 135 59.5t51 142.5q0 87 -47.5 147.5t-133.5 60.5q-85 0 -133 -58.5t-48 -150.5q0 -84 47 -142.5t129 -58.5z" />
    <glyph glyph-name="uni0432" unicode="&#x432;" horiz-adv-x="696" 
d="M96 588h357q74 0 116.5 -47.5t42.5 -111.5q0 -85 -51 -128q65 -34 65 -131q0 -70 -45 -120t-123 -50h-362v588zM190 340h264q43 0 60 38t-2 75.5t-62 37.5h-260v-151zM190 97h270q43 0 61 37.5t-0.5 75.5t-61.5 38h-269v-151z" />
    <glyph glyph-name="uni0433" unicode="&#x433;" horiz-adv-x="552" 
d="M534 488h-341v-488h-97v588h438v-100z" />
    <glyph glyph-name="uni0434" unicode="&#x434;" horiz-adv-x="637" 
d="M617 85v-228h-90v143h-437v-143h-90v228h34q59 20 101 84q43 66 58 163t15 256h311v-503h98zM425 85v415h-130q-4 -146 -30.5 -248.5t-93.5 -166.5h254z" />
    <glyph glyph-name="uni0435" unicode="&#x435;" horiz-adv-x="660" 
d="M335 600q130 0 206.5 -86.5t72.5 -246.5h-465q2 -81 55.5 -133.5t139.5 -52.5q121 0 165 118h99q-26 -94 -97.5 -152.5t-175.5 -58.5q-125 0 -206 85t-81 219t79.5 221t207.5 87zM334 509q-65 0 -115.5 -40.5t-63.5 -110.5h351q-11 73 -55 112t-117 39z" />
    <glyph glyph-name="uni0436" unicode="&#x436;" horiz-adv-x="960" 
d="M840 236l3 -117q1 -26 14 -31.5t54 -5.5v-82h-50q-30 0 -45.5 2t-32 10t-23 26.5t-7.5 49.5l-2 86q0 22 -0.5 29.5t-4 20t-11 16t-21 7t-34.5 3.5h-146v-250h-96v250h-158q-21 0 -34.5 -3.5t-21 -7t-11 -16t-4 -20t-0.5 -29.5l-2 -86q-1 -58 -25.5 -73t-82.5 -15h-50v82
q41 0 54 5.5t14 31.5l3 117q1 45 31 73q-23 29 -24 67l-4 83q-1 33 -12 39.5t-53 6.5v83h56q48 0 71 -22t25 -76l3 -76q3 -70 53 -70h172v244h96v-244h160q50 0 53 70l3 76q2 54 25 76t71 22h56v-83q-42 0 -53 -6.5t-12 -39.5l-4 -83q-1 -38 -24 -67q30 -28 31 -73z" />
    <glyph glyph-name="uni0437" unicode="&#x437;" horiz-adv-x="648" 
d="M509 304q67 -45 65 -132q-2 -181 -259 -181q-139 0 -198 57t-61 144h89q7 -118 179 -118q152 0 152 94q0 37 -20.5 60.5t-62.5 23.5h-149v90h139q81 0 81 76q0 95 -149 95q-52 0 -86.5 -11t-50 -31.5t-21.5 -39.5t-6 -44h-87q1 38 12 71t36.5 66.5t76.5 53t123 19.5
q250 0 250 -181q0 -73 -53 -112z" />
    <glyph glyph-name="uni0438" unicode="&#x438;" horiz-adv-x="696" 
d="M600 588v-588h-94l2 471l-63 -105l-233 -366h-116v588h94l-2 -480l72 119l229 361h111z" />
    <glyph glyph-name="uni0439" unicode="&#x439;" horiz-adv-x="697" 
d="M376 633h-38q-148 0 -148 90v11l83 3q0 -35 71 -35h26q71 0 71 35l83 -3v-10q0 -91 -148 -91zM600 588v-588h-94l2 471l-63 -105l-233 -366h-116v588h94l-2 -480l72 119l229 361h111z" />
    <glyph glyph-name="uni043A" unicode="&#x43a;" horiz-adv-x="671" 
d="M536 236l3 -117q1 -26 14 -31.5t54 -5.5v-82h-50q-30 0 -45.5 2t-32 10t-23 26.5t-7.5 49.5l-2 86q0 22 -0.5 29.5t-4 20t-11 16t-21 7t-34.5 3.5h-184v-250h-96v588h96v-244h198q50 0 53 70l3 76q2 54 25 76t71 22h56v-83q-42 0 -53 -6.5t-12 -39.5l-4 -83
q-1 -38 -24 -67q30 -28 31 -73z" />
    <glyph glyph-name="uni043B" unicode="&#x43b;" horiz-adv-x="636" 
d="M540 0h-96v492h-98q-31 0 -45 -12.5t-24 -48.5l-86 -324q-29 -107 -117 -107h-74v84h36q14 0 22 1.5t18 6.5t17.5 17t12.5 31l86 326q19 73 51 97.5t98 24.5h199v-588z" />
    <glyph glyph-name="uni043C" unicode="&#x43c;" horiz-adv-x="864" 
d="M258 588l175 -482l183 482h150l2 -588h-95v484h-9l-183 -482h-107l-181 482h-5l1 -484h-93v588h162z" />
    <glyph glyph-name="uni043D" unicode="&#x43d;" horiz-adv-x="696" 
d="M600 588v-588h-96v253h-312v-253h-96v588h96v-240h312v240h96z" />
    <glyph glyph-name="uni043E" unicode="&#x43e;" horiz-adv-x="696" 
d="M348 600q132 0 216 -87t84 -218t-84 -219t-216 -88q-131 0 -215.5 88t-84.5 218t84.5 218t215.5 88zM348 507q-90 0 -144.5 -62t-54.5 -151q0 -90 54.5 -152t144.5 -62t144.5 62.5t54.5 152.5q0 89 -54.5 150.5t-144.5 61.5z" />
    <glyph glyph-name="uni043F" unicode="&#x43f;" horiz-adv-x="696" 
d="M600 588v-588h-97v488h-310v-488h-97v588h504z" />
    <glyph glyph-name="uni0440" unicode="&#x440;" horiz-adv-x="720" 
d="M394 599q128 0 203 -85t75 -217t-77 -220.5t-201 -88.5q-128 0 -200 78v-246h-98v768h98v-66q72 77 200 77zM384 80q90 0 137.5 61.5t47.5 155.5q0 93 -47.5 152t-137.5 59t-139.5 -60t-49.5 -152q0 -93 49.5 -154.5t139.5 -61.5z" />
    <glyph glyph-name="uni0441" unicode="&#x441;" horiz-adv-x="671" 
d="M625 363h-96q-13 66 -60 105.5t-121 39.5q-91 0 -145.5 -62t-54.5 -152t54.5 -151t145.5 -61q141 0 178 125h96q-23 -97 -95.5 -158t-178.5 -61q-132 0 -216 85.5t-84 222.5q0 130 84.5 217t215.5 87q115 0 190.5 -66t86.5 -171z" />
    <glyph glyph-name="uni0442" unicode="&#x442;" horiz-adv-x="600" 
d="M590 492h-241v-492h-97v492h-242v96h580v-96z" />
    <glyph glyph-name="uni0443" unicode="&#x443;" horiz-adv-x="624" 
d="M594 588l-284 -672q-22 -51 -52 -70t-80 -19h-77v94h46q40 0 59.5 12t36.5 51l31 70l-244 534h113l180 -413l168 413h103z" />
    <glyph glyph-name="uni0444" unicode="&#x444;" 
d="M442 758v-195q32 34 107 36q69 1 120 -42.5t51 -120.5v-279q0 -77 -50 -120.5t-119 -43.5q-80 0 -109 35v-208h-91v208q-33 -37 -114 -35q-68 2 -116.5 45.5t-48.5 118.5v279q0 75 48.5 118.5t115.5 44.5q77 0 115 -36v195h91zM168 424v-254q0 -41 28.5 -65t63 -24t63 24
t28.5 65v254q0 41 -28.5 65t-63 24t-63 -24t-28.5 -65zM624 170v254q0 41 -28.5 65t-62.5 24t-62.5 -24t-28.5 -65v-254q0 -41 28.5 -65t62.5 -24t62.5 24t28.5 65z" />
    <glyph glyph-name="uni0445" unicode="&#x445;" horiz-adv-x="600" 
d="M459 0l-165 232l-163 -232h-116l222 306l-202 282h121l144 -203l143 203h112l-198 -276l228 -312h-126z" />
    <glyph glyph-name="uni0446" unicode="&#x446;" horiz-adv-x="721" 
d="M699 85v-228h-90v143h-513v588h98v-491h296v491h97v-503h112z" />
    <glyph glyph-name="uni0447" unicode="&#x447;" horiz-adv-x="624" 
d="M528 587v-589h-97v253l-254 -2q-81 0 -111 35t-30 99v204h88v-171q0 -46 16.5 -60t55.5 -14h235v245h97z" />
    <glyph glyph-name="uni0448" unicode="&#x448;" horiz-adv-x="1008" 
d="M912 0h-816v588h97v-493h262v493h97v-493h263v493h97v-588z" />
    <glyph glyph-name="uni0449" unicode="&#x449;" horiz-adv-x="1044" 
d="M1022 85v-228h-90v143h-836v588h97v-493h262v493h97v-493h263v493h97v-503h110z" />
    <glyph glyph-name="uni044A" unicode="&#x44a;" horiz-adv-x="720" 
d="M277 343h244q50 0 87 -25.5t54 -63.5t17 -82.5t-17 -82.5t-54 -63.5t-87 -25.5h-342v510l-178 -1v79h276v-245zM277 97h234q33 0 51.5 23.5t18.5 51t-18.5 51t-51.5 23.5h-234v-149z" />
    <glyph glyph-name="uni044B" unicode="&#x44b;" horiz-adv-x="864" 
d="M193 350h223q54 0 93.5 -26t57 -65t17.5 -84t-17.5 -84t-57 -65t-93.5 -26h-320v588h97v-238zM768 588v-588h-97v588h97zM193 97h219q36 0 56.5 24.5t20.5 53.5t-20.5 53.5t-56.5 24.5h-219v-156z" />
    <glyph glyph-name="uni044C" unicode="&#x44c;" horiz-adv-x="637" 
d="M194 343h244q50 0 87 -25.5t54 -63.5t17 -82.5t-17 -82.5t-54 -63.5t-87 -25.5h-342v588h98v-245zM194 97h234q33 0 51.5 23.5t18.5 51t-18.5 51t-51.5 23.5h-234v-149z" />
    <glyph glyph-name="uni044D" unicode="&#x44d;" horiz-adv-x="666" 
d="M306 600q131 0 207 -84t76 -222q0 -139 -75.5 -222.5t-209.5 -83.5q-111 0 -185.5 62t-85.5 161h95q10 -52 57 -92t119 -40q79 0 127 44.5t55 120.5h-283v98h282q-6 74 -54.5 121t-126.5 47q-73 0 -121.5 -43t-54.5 -97h-95q11 97 86 163.5t187 66.5z" />
    <glyph glyph-name="uni044E" unicode="&#x44e;" horiz-adv-x="900" 
d="M572 603q124 0 202 -87.5t78 -218.5q0 -132 -77.5 -219.5t-202.5 -87.5q-117 0 -189.5 76t-82.5 196h-108v-262h-96v588h96v-231h112q16 109 88 177.5t180 68.5zM572 82q84 0 133 62t49 153q0 90 -49 152t-133 62q-83 0 -130.5 -62t-47.5 -153t47.5 -152.5t130.5 -61.5z
" />
    <glyph glyph-name="uni044F" unicode="&#x44f;" horiz-adv-x="672" 
d="M576 588v-588h-96v217h-220l-97 -217h-107l114 233q-54 14 -81.5 57t-28.5 100q-1 82 48.5 140t145.5 58h322zM480 307v188h-227q-50 0 -73 -28t-23 -64q0 -38 23 -67t72 -29h228z" />
    <glyph glyph-name="uni0451" unicode="&#x451;" horiz-adv-x="660" 
d="M249 742v-100h-113v100h113zM537 742v-100h-112v100h112zM335 600q130 0 206.5 -86.5t72.5 -246.5h-465q2 -81 55.5 -133.5t139.5 -52.5q121 0 165 118h99q-26 -94 -97.5 -152.5t-175.5 -58.5q-125 0 -206 85t-81 219t79.5 221t207.5 87zM334 509q-65 0 -115.5 -40.5
t-63.5 -110.5h351q-11 73 -55 112t-117 39z" />
    <glyph glyph-name="uni0456" unicode="&#x456;" horiz-adv-x="288" 
d="M201 730v-90h-114v90h114zM94 0v588h100l-1 -588h-99z" />
    <glyph glyph-name="uni0458" unicode="&#x458;" horiz-adv-x="288" 
d="M201 730v-90h-114v90h114zM-1 -184v87q59 1 77 18t18 82v585h97v-593q0 -59 -4.5 -88.5t-22.5 -52.5t-52 -30.5t-95 -7.5h-18z" />
    <glyph glyph-name="uni04C0" unicode="&#x4c0;" horiz-adv-x="348" 
d="M230 700v-700h-112v700h112z" />
    <glyph glyph-name="endash" unicode="&#x2013;" horiz-adv-x="733" 
d="M703 391v-105h-673v105h673z" />
    <glyph glyph-name="emdash" unicode="&#x2014;" horiz-adv-x="1043" 
d="M1013 391v-105h-983v105h983z" />
    <glyph glyph-name="quoteleft" unicode="&#x2018;" horiz-adv-x="444" 
d="M309 699v-163h-132v114q0 74 17 141t44 109h50q-53 -89 -53 -201h74z" />
    <glyph glyph-name="quoteright" unicode="&#x2019;" horiz-adv-x="444" 
d="M228 782v-114q0 -74 -17 -141t-44 -109h-50q53 89 53 201h-74v163h132z" />
    <glyph glyph-name="quotesinglbase" unicode="&#x201a;" horiz-adv-x="600" 
d="M228 163v-114q0 -74 -17 -141t-44 -109h-50q53 89 53 201h-74v163h132z" />
    <glyph glyph-name="quotedblleft" unicode="&#x201c;" horiz-adv-x="526" 
d="M158 789h50q-53 -89 -53 -201h74v-163h-132v114q0 74 17 141t44 109zM462 588v-163h-132v114q0 74 17 141t44 109h50q-53 -89 -53 -201h74z" />
    <glyph glyph-name="quotedblright" unicode="&#x201d;" horiz-adv-x="634" 
d="M133 752h132v-114q0 -74 -17 -141t-44 -109h-50q53 89 53 201h-74v163zM498 752v-114q0 -74 -17 -141t-44 -109h-50q53 89 53 201h-74v163h132z" />
    <glyph glyph-name="quotedblbase" unicode="&#x201e;" horiz-adv-x="569" 
d="M96 163h132v-114q0 -74 -17 -141t-44 -109h-50q53 89 53 201h-74v163zM461 163v-114q0 -74 -17 -141t-44 -109h-50q53 89 53 201h-74v163h132z" />
    <glyph glyph-name="bullet" unicode="&#x2022;" horiz-adv-x="600" 
 />
    <glyph glyph-name="ellipsis" unicode="&#x2026;" horiz-adv-x="914" 
d="M228 163v-163h-132v163h132zM468 163v-163h-132v163h132zM698 163v-163h-132v163h132z" />
    <glyph glyph-name="guilsinglleft" unicode="&#x2039;" horiz-adv-x="600" 
 />
    <glyph glyph-name="guilsinglright" unicode="&#x203a;" horiz-adv-x="600" 
 />
    <glyph glyph-name="uni2116" unicode="&#x2116;" horiz-adv-x="1283" 
d="M1001 387q-67 0 -115 47.5t-48 115.5q0 67 48 114.5t115 47.5t114.5 -47.5t47.5 -114.5t-47.5 -115t-114.5 -48zM642 700h112v-700h-157l-365 568v-568h-112v700h165l357 -565v565zM1001 629q-34 0 -57 -23t-23 -56q0 -34 23 -57t57 -23q33 0 56 23t23 57q0 33 -23 56
t-56 23zM840 331h317v-78h-317v78z" />
    <glyph glyph-name="minus" unicode="&#x2212;" horiz-adv-x="691" 
d="M591 388v-103h-491v103h491z" />
    <glyph glyph-name="Klegs" horiz-adv-x="600" 
d="M639 417v-105h-273q-38 0 -54.5 -14t-18.5 -53l-6 -106q-5 -81 -25 -110t-76 -29h-83v97q51 0 65.5 9t14.5 38l8 145q3 67 47 91q-34 28 -34 82l-3 82q-1 22 -2.5 30.5t-8 17.5t-20.5 11.5t-40 2.5v94h73q49 0 73.5 -24t25.5 -80l1 -114q0 -65 64 -65h272z" />
    <glyph glyph-name="kleg" horiz-adv-x="600" 
d="M536 236l3 -117q1 -26 14 -31.5t54 -5.5v-82h-50q-30 0 -45.5 2t-32 10t-23 26.5t-7.5 49.5l-2 86q0 22 -0.5 29.5t-4 20t-11 16t-21 7t-34.5 3.5h-215v94h229q50 0 53 70l3 76q2 54 25 76t71 22h56v-83q-42 0 -53 -6.5t-12 -39.5l-4 -83q-1 -38 -24 -67q30 -28 31 -73z
" />
    <glyph glyph-name="newGlyph" horiz-adv-x="2088" 
d="M1079 602q36 0 67.5 -7t61 -24t47 -50.5t17.5 -81.5v-439h-96v412q0 54 -29.5 75t-95.5 21q-77 0 -132 -36.5t-55 -78.5v-393h-96v588h96v-54q88 68 215 68zM1756 599q134 0 209 -84.5t75 -217.5q0 -134 -78 -220.5t-216 -86.5q-122 0 -184 67v-237h-98v768h98v-67
q68 78 194 78zM576 416v-276q0 -39 6.5 -53t29.5 -14v-73h-79q-35 0 -43 14.5t-8 69.5v-10q-44 -85 -244 -85q-193 0 -193 153q0 39 11.5 68.5t36.5 48t51.5 30t71 18.5t79.5 10.5t92.5 8t94.5 8.5v81q0 47 -29 69t-92 22q-109 0 -151 -21t-50 -60l-103 -3q17 171 289 171
q131 0 180.5 -42t49.5 -135zM1744 80q96 0 144.5 61t48.5 156q0 94 -48.5 153.5t-144.5 59.5q-95 0 -138 -59t-43 -155q0 -97 43 -156.5t138 -59.5zM482 194v58q-34 -4 -83.5 -8.5t-75.5 -7t-60 -7t-51 -10.5t-34.5 -15.5t-24 -23t-6.5 -31.5q0 -41 29.5 -59t91.5 -18h29
t36 2.5t42.5 6.5t38.5 13t35.5 21.5t23 32.5t9.5 46z" />
    <glyph glyph-name="noga" horiz-adv-x="335" 
d="M285 85v-228h-90v143h-145v85h235z" />
    </font>
</defs>
</svg>
